怀旧唱片

 找回密码
 加入我们
查看: 206|回复: 4
收起左侧

[国语专辑] 李茂山_聪明的女人 最后的选择_1990_飞翔唱片(台版)_WAV整轨

[复制链接]
发表于 2019-7-12 10:24:56 | 显示全部楼层 |阅读模式
专辑名称: 聪明的女人 最后的选择
艺人名称: 李茂山
出版年代: 1990
发行机构: 飞翔唱片
专辑介绍: 1. 聪明的女人
2. 最后的选择
3. 搞不懂你
4. 痴痴等候
5. 因为你不能够
6. 不再想你
7. 没有结束的游戏
8. 我以为你不会流泪
9. 只能这样
10. 你是我永远的朋友
编码格式: wav
编码速率: 未压缩
网路上常见的都是马来西亚瑞华唱片发行的CD,台版的很少见,两者在曲目编排上不太一样。
我觉得台版的歌词页精致很多,星马版的好像就是白底黑字而已


IMG0001.jpg
IMG0006.jpg
IMG0005.jpg

日志:
Exact Audio Copy V1.3 from 2. September 2016

EAC extraction logfile from 11. July 2019, 21:51

李茂山 / 最後的選擇

Used drive  : PIONEER DVD-RW  DVR-221L   Adapter: 1  ID: 0

Read mode               : Secure
Utilize accurate stream : Yes
Defeat audio cache      : Yes
Make use of C2 pointers : No

Read offset correction                      : 0
Overread into Lead-In and Lead-Out          : No
Fill up missing offset samples with silence : Yes
Delete leading and trailing silent blocks   : No
Null samples used in CRC calculations       : Yes
Used interface                              : Native Win32 interface for Win NT & 2000

Used output format : Internal WAV Routines
Sample format      : 44.100 Hz; 16 Bit; Stereo


TOC of the extracted CD

     Track |   Start  |  Length  | Start sector | End sector
    ---------------------------------------------------------
        1  |  0:00.00 |  4:30.67 |         0    |    20316   
        2  |  4:30.67 |  4:12.08 |     20317    |    39224   
        3  |  8:43.00 |  4:28.32 |     39225    |    59356   
        4  | 13:11.32 |  3:55.18 |     59357    |    76999   
        5  | 17:06.50 |  3:53.60 |     77000    |    94534   
        6  | 21:00.35 |  4:04.32 |     94535    |   112866   
        7  | 25:04.67 |  3:32.13 |    112867    |   128779   
        8  | 28:37.05 |  3:52.25 |    128780    |   146204   
        9  | 32:29.30 |  4:46.65 |    146205    |   167719   
       10  | 37:16.20 |  4:31.15 |    167720    |   188059   


Range status and errors

Selected range

     Filename D:\李茂山 - 最後的選擇.wav

     Peak level 100.0 %
     Extraction speed 6.6 X
     Range quality 100.0 %
     Test CRC D8D4EB85
     Copy CRC D8D4EB85
     Copy OK

No errors occurred

End of status report



李茂山1.rar

288.31 MB, 下载次数: 2, 下载积分: 点券 -1 点

售价: 110 元虚拟币  [记录]

评分

参与人数 1虚拟币 +50 收起 理由
夜色 + 50

查看全部评分

发表于 2019-7-14 07:41:53 | 显示全部楼层
这个版本的没见过,收下了,谢谢分享。
回复

使用道具 举报

发表于 2019-7-14 15:50:12 | 显示全部楼层
主打歌听过,还不错
回复

使用道具 举报

发表于 2019-7-15 11:26:23 | 显示全部楼层
台版的专辑包装和制作确实比新马版要精美得多。
回复

使用道具 举报

发表于 2019-11-23 14:44:58 | 显示全部楼层
没见过这张专辑,谢谢分享!
回复

使用道具 举报

您需要登录后才可以回帖 登录 | 加入我们

本版积分规则

Archiver|手机版|怀旧唱片交流论坛

GMT+8, 2020-1-22 23:15

Powered by NostalgicRecord.com © 2003-2019

Discuz! X3.2 免责声明
快速回复 返回顶部 返回列表